&title=[宴] Credits
&artist=Frums
&wholebpm=179
&demo_seek=33.22
&demo_len=11.48
&lv_7=蔵
&inote_7=(179.0){1},
{8}1,1,1,1,2,2,2,2,
{8}8,8,8,
{16}7,7,
{12}8,
{995}7,,,,,,,,,,,,,,,,,,,,,,,,,,,,,,,,,,,,,,,,,,,,,,,,,,,,,,,,,,,,,,,,,,,,,,,,,,,,,,,,,,,
{12}8,7,
{995}8,,,,,,,,,,,,,,,,,,,,,,,,,,,,,,,,,,,,,,,,,,,,,,,,,,,,,,,,,,,,,,,,,,,,,,,,,,,,,,,,,,,
{24}7,,
{8}8,8,8,8,7,7,7,7,
{8}1,1,1,
{16}2,2,
{12}1,
{995}2,,,,,,,,,,,,,,,,,,,,,,,,,,,,,,,,,,,,,,,,,,,,,,,,,,,,,,,,,,,,,,,,,,,,,,,,,,,,,,,,,,,
{12}1,2,
{995}1,,,,,,,,,,,,,,,,,,,,,,,,,,,,,,,,,,,,,,,,,,,,,,,,,,,,,,,,,,,,,,,,,,,,,,,,,,,,,,,,,,,
{24}2,,
{8}7,7,7,7,5,5,5,5,
{8}3,3,3,
{16}6,6,
{12}5,
{995}6,,,,,,,,,,,,,,,,,,,,,,,,,,,,,,,,,,,,,,,,,,,,,,,,,,,,,,,,,,,,,,,,,,,,,,,,,,,,,,,,,,,
{12}4,5,
{995}3,,,,,,,,,,,,,,,,,,,,,,,,,,,,,,,,,,,,,,,,,,,,,,,,,,,,,,,,,,,,,,,,,,,,,,,,,,,,,,,,,,,
{24}4,,
{8}2,2,2,2,4,4,4,4,
{8}6,6,6,
{16}3,3,
{12}4,
{995}3,,,,,,,,,,,,,,,,,,,,,,,,,,,,,,,,,,,,,,,,,,,,,,,,,,,,,,,,,,,,,,,,,,,,,,,,,,,,,,,,,,,
{12}5,4,
{995}6,,,,,,,,,,,,,,,,,,,,,,,,,,,,,,,,,,,,,,,,,,,,,,,,,,,,,,,,,,,,,,,,,,,,,,,,,,,,,,,,,,,
{12}5,
{8}7h[4:1],,1,2h[4:1],,8,7h[4:1],1,
{8}2h[4:1],,8<1[4:1],7h[8:3],,,,,
{8}2h[4:1],,8,7h[4:1],,1,2h[4:1],8,
{8}7h[4:1],,1>8[4:1],2h[8:3],,,,,
{8}7h[4:1],1,2,3h[4:1],8,7,6h[4:1],1,
{8}2h[4:1],8,7>5[4:1],6h[8:3],,,,,
{8}2h[4:1],8,7,6h[4:1],1,2,3h[4:1],8,
{8}7h[4:1],1,2<4[4:1],3h[8:3],,,,,
{8}8h[4:1],1,2,1/3h[4:1],8,7,8/6h[4:1],1,
{8}2h[4:1],1,8,7h[8:3],
{639}1,,,,,,,,,,,,,,,,,,,,
{16}8,
{641}6,,,,,,,,,,,,,,,,,,,,
{639}5,,,,,,,,,,,,,,,,,,,,
{641}4,,,,,,,,,,,,,,,,,,,,
{639}3,,,,,,,,,,,,,,,,,,,,
{641}2,,,,,,,,,,,,,,,,,,,,
{8}1,,
{8}1h[4:1],8,7,8/6h[4:1],1,2,1/3h[4:1],8,
{8}7h[4:1],8,1,2h[8:3],
{639}8,,,,,,,,,,,,,,,,,,,,
{16}1,
{641}3,,,,,,,,,,,,,,,,,,,,
{639}4,,,,,,,,,,,,,,,,,,,,
{641}5,,,,,,,,,,,,,,,,,,,,
{639}6,,,,,,,,,,,,,,,,,,,,
{641}7,,,,,,,,,,,,,,,,,,,,
{4}8,
{8}1h[8:1]/6h[4:1],,2h[8:3],1h[8:1],,7h[8:3],8h[8:1],,
{8}3h[4:1],8h[4:1],,1h[8:3],
{639}7,,,,,,,,,,,,,,,,,,,,
{16}8,
{641}2,,,,,,,,,,,,,,,,,,,,
{639}3,,,,,,,,,,,,,,,,,,,,
{641}4,,,,,,,,,,,,,,,,,,,,
{639}5,,,,,,,,,,,,,,,,,,,,
{641}6,,,,,,,,,,,,,,,,,,,,
{4}7,
{8}8h[8:1]/3h[4:1],,7h[8:3],8h[8:1],,2h[8:3],1h[8:1],,
{8}6h[4:1],1h[4:1],,8h[8:3],
{639}2,,,,,,,,,,,,,,,,,,,,
{16}1,
{641}7,,,,,,,,,,,,,,,,,,,,
{639}6,,,,,,,,,,,,,,,,,,,,
{641}5,,,,,,,,,,,,,,,,,,,,
{639}4,,,,,,,,,,,,,,,,,,,,
{641}3,,,,,,,,,,,,,,,,,,,,
{8}2,,
{16}1,,4/7,,8,,5,2,4,,3/5,,4,7,5,,
{16}4/6,,5,2,4-1[16:1],,4q8[16:1],,4^2[16:1],,4^7[16:1],,4,,4,,
{16}1,,6,2,5,3,4,,3,7,4,6,5,,
{641}1,,,,,,,,,,,,,,,,,,,,
{639}8,,,,,,,,,,,,,,,,,,,,7,,,,,,,,,,,,,,,,,,,,
{641}6,,,,,,,,,,,,,,,,,,,,
{8}5,1/3,4,5/7,
{16}1,1,1,1,
{983}2,,,,,,,,,,,,,,,,,,,,,,,,,,,,,,,,,,,,,,,,,
{625}8,,,,,,,,,,,,,,,,,,,,,,,,,,
{983}3,,,,,,,,,,,,,,,,,,,,,,,,,,,,,,,,,,,,,,,,,7,,,,,,,,,,,,,,,,,,,,,,,,,,,,,,,,,,,,,,,,,
{625}4,,,,,,,,,,,,,,,,,,,,,,,,,,
{983}6,,,,,,,,,,,,,,,,,,,,,,,,,,,,,,,,,,,,,,,,,
{16}1,,5,2,4,,3/5,,4,7,5,,4/6,,5,2,
{16}4,,7,,5,,3-7[16:1],3,3h[4:1],,,,6-2[16:1],6,6h[4:1],,
{16},,3-7[16:1],3,3h[4:1],,,,6-2[16:1],6,6h[4:1],,,,3-7[16:1],3,
{16}3h[4:1],,,,6-2[16:1],6,6h[4:1],,,,3-7[16:1],3,3,,1,1,
{16}8,,2/5,,1,,4,7,5,,4/6,,5,2,4,,
{16}3/5,,4,7,5-8[16:1],,5p1[16:1],,5^7[16:1],,5^2[16:1],,5,,5,,
{16}8,,3,7,4,6,5,,6,2,5,3,4,,
{639}8,,,,,,,,,,,,,,,,,,,,
{641}1,,,,,,,,,,,,,,,,,,,,
{639}2,,,,,,,,,,,,,,,,,,,,
{641}3,,,,,,,,,,,,,,,,,,,,
{8}4,6/8,5,2/4,
{16}8,8,8,8,
{983}7,,,,,,,,,,,,,,,,,,,,,,,,,,,,,,,,,,,,,,,,,
{625}1,,,,,,,,,,,,,,,,,,,,,,,,,,
{983}6,,,,,,,,,,,,,,,,,,,,,,,,,,,,,,,,,,,,,,,,,2,,,,,,,,,,,,,,,,,,,,,,,,,,,,,,,,,,,,,,,,,
{625}5,,,,,,,,,,,,,,,,,,,,,,,,,,
{983}3,,,,,,,,,,,,,,,,,,,,,,,,,,,,,,,,,,,,,,,,,
{16}8,,4,7,5,,4/6,,5,2,4,,3/5,,4,7,
{16}5,,6,,3,,8-4[16:1],8,8h[4:1],,,,1-5[16:1],1,1h[4:1],,
{16},,8-4[16:1],8,8h[4:1],,,,1-5[16:1],1,1h[4:1],,,,8-4[16:1],8,
{16}8h[4:1],,,,1w5[16:1],1,1,,,,,,3/7,,5,,
{16}3/4,,4,4/5,,5,6,,5/6,,5,4/5,,4,3,,
{16}3/4,,4,4/5,,5,6,,5/6,5,4,6,5,6,4,5,
{16}5/6,,5,4/5,,4,3,,3/4,,4,4/5,,5,6,,
{16}5/6,,5,4/5,,4,3,,3/4,4,5,3,4,3,5,4,
{16}3/4,,4,4/5,,5,6,6,5/6,,5,4/5,,4,3,3,
{16}3/4,,4,4/5,,5,6,6,5/6,5,4,6,5,6,4,5,
{16}5/6,,5,4/5,,4,3,3,3/4,,4,4/5,,5,6,6,
{16}5/6,,4,3/4,,5,5/6,,3,3/4,,6,5b/6,,,,
{16}4,5,4,6,5,6,4,4,5,4,5,3,4,3,5,5,
{16}4,5,4,6,5,6,4,4,5,4,5,5,3,3,6,6,
{16}4,5,4,6,5,6,4,4,5,4,5,3,4,3,5,5,
{16}4,5,4,6,5,6,4,4,5,4,5,3,
{625}3,,,,,,,,,,,,,
{622}2,,,,,,,,,,,,,
{625}1,,,,,,,,,,,,,
{16}8,6,6,
{16}3,5,5,6,6,4,4,3,6,4,4,3,3,5,5,6,
{16}3,5,5,6,6,4,4,3,6,4,4,3,5,4,6,6,
{16}3,5,5,6,6,4,4,3,6,4,4,3,3,5,5,6,
{16}3,5,5,6,6,4,4,3,6,4,4,3,
{641}6,,,,,,,,,,,,,,,,,,,,
{639}7,,,,,,,,,,,,,,,,,,,,8,,,,,,,,,,,,,,,,,,,,
{641}1,,,,,,,,,,,,,,,,,,,,
{639}2,,,,,,,,,,,,,,,,,,,,
{641}3,,,,,,,,,,,,,,,,,,,,
{639}4,,,,,,,,,,,,,,,,,,,,
{641}5,,,,,,,,,,,,,,,,,,,,
{641}3/6h[1:3],,,,,,,,,,,,,,,,,,,,
{639}2,,,,,,,,,,,,,,,,,,,,1,,,,,,,,,,,,,,,,,,,,
{641}8,,,,,,,,,,,,,,,,,,,,
{16}7,
{639}5,,,,,,,,,,,,,,,,,,,,
{641}4,,,,,,,,,,,,,,,,,,,,
{639}3,,,,,,,,,,,,,,,,,,,,
{641}2,,,,,,,,,,,,,,,,,,,,
{639}1,,,,,,,,,,,,,,,,,,,,
{641}8,,,,,,,,,,,,,,,,,,,,
{16}7,
{639}5,,,,,,,,,,,,,,,,,,,,
{641}4,,,,,,,,,,,,,,,,,,,,
{983}3,,,,,,,,,,,,,,,,,,,,,,,,,,,,,,,,,,,,,,,,,
{625}2,,,,,,,,,,,,,,,,,,,,,,,,,,
{983}1,,,,,,,,,,,,,,,,,,,,,,,,,,,,,,,,,,,,,,,,,8,,,,,,,,,,,,,,,,,,,,,,,,,,,,,,,,,,,,,,,,,
{12}7,
{983}5,,,,,,,,,,,,,,,,,,,,,,,,,,,,,,,,,,,,,,,,,
{625}4,,,,,,,,,,,,,,,,,,,,,,,,,,
{983}3,,,,,,,,,,,,,,,,,,,,,,,,,,,,,,,,,,,,,,,,,2,,,,,,,,,,,,,,,,,,,,,,,,,,,,,,,,,,,,,,,,,
{625}1,,,,,,,,,,,,,,,,,,,,,,,,,,
{983}8,,,,,,,,,,,,,,,,,,,,,,,,,,,,,,,,,,,,,,,,,
{16}7,,5,4,3,2,1,8,
{12}7,,5,4,
{995}3,,,,,,,,,,,,,,,,,,,,,,,,,,,,,,,,,,,,,,,,,,,,,,,,,,,,,,,,,,,,,,,,,,,,,,,,,,,,,,,,,,,
{24}2,,
{24}1,,,8,,,7,,,,,,5,,,,4,,,,3,,,,
{1}2,
{8}5h[8:1]/3h[4:1],,5,3/5h[8:1],3h[8:1],5,3/5h[8:1],3h[8:1],
{8}6h[8:1],4h[8:1],6qq3[4:1],4/6h[8:3],,,,,
{8}4h[8:1]/6h[4:1],,4,6/4h[8:1],6h[8:1],4,6/4h[8:1],6h[8:1],
{8}3h[8:1],5h[8:1],3pp6[4:1],5/3h[8:3],,,,,
{8}4/6h[4:1],4,4,4/2h[4:1],4,4,4/6h[8:1],4,
{8}4/2h[4:1],4,4z8[8:1],1s5[8:1],,,,,
{8}5/3h[4:1],5,5,5/7h[4:1],5,5,5/3h[8:1],5,
{8}5/7h[4:1],5,5s1[8:1],8z4[8:1],,,,,
{8}1,1,1,1,2,2,2,2,
{8}8,8,8,
{16}7,7,
{12}8,
{995}7,,,,,,,,,,,,,,,,,,,,,,,,,,,,,,,,,,,,,,,,,,,,,,,,,,,,,,,,,,,,,,,,,,,,,,,,,,,,,,,,,,,
{12}8,7,
{995}8,,,,,,,,,,,,,,,,,,,,,,,,,,,,,,,,,,,,,,,,,,,,,,,,,,,,,,,,,,,,,,,,,,,,,,,,,,,,,,,,,,,
{24}7,,
{8}8,8,8,8,7,7,7,7,
{8}1,1,1-5[16:1],
{16}1,,,,
E
